Kατηγορίες

INDIAN HORSE (2017) BRRip XviD AC3-XVID {ΕΝΣΩΜ.ΥΠΟΤ}

ΣΚΗΝΟΘΕΣΙΑ : Stephen S. Campanelli
ΣΕΝΑΡΙΟ : Dennis Foon, Richard Wagamese (based on the novel by)
ΗΘΟΠΟΙΟΙ : Sladen Peltier, Forrest Goodluck, Ajuawak Kapashesit
ΕΙΔΟΣ : Drama
ΠΡΕΜΙΕΡΑ : 13 April 2018 (Canada)
ΜΕΤΑΦΡΑΣΗ : Άγνωστος
iMDB: http://www.imdb.com/title/tt5672286/

Υπόθεση

Στα τέλη της δεκαετίας του ’50 του Οντάριο, ο επτάχρονος Saul Indian Horse είναι αποχωρισμένος από την οικογένεια του Ojibway και βρίσκεται σε μια από τις πασίγνωστες καθολικές σχολές κατοίκησης του Καναδά. Σε αυτό το καταπιεστικό περιβάλλον, ο Saul στερείται της ελευθερίας να μιλάει τη γλώσσα του ή να αγκαλιάζει την ιθαγενή του κληρονομιά και γίνεται μάρτυρας παντός είδους κακοποίησης από τους ίδιους τους ανθρώπους στους οποίους ανατέθηκε η φροντίδα του. Παρ ‘όλα αυτά, ο Saul βρίσκει σωτηρία στο αγαπημένο καναδικό χόμπι, το χόκεϊ. Γοητευμένος από το παιχνίδι, κρυφά διδάσκει τον εαυτό του πως όχι μόνο να παίζει αλλά αναπτύσσει μια μοναδική και σπάνια ικανότητα. Είναι σαν να έχει τα μάτια στο πίσω μέρος του κεφαλιού του και να βλέπει το παιχνίδι με έναν τρόπο που κανένας άλλος παίκτης δεν μπορεί. Το ταλέντο του τον οδηγεί μακριά από τη δυστυχία του σχολείου σε ένα πρωτάθλημα του Βόρειου Οντάριο. Αλλά τα φαντάσματα του παρελθόντος του Σαούλ θα τον κυνηγούν πάντα. Αναγκασμένος να αντιμετωπίσει οδυνηρές αναμνήσεις και αποκαλύψεις, ο Saul αντλεί δύναμη από το πνεύμα των προγόνων του και την κατανόηση των φίλων του για να κερδίσει τη συμπόνια που τόσο πολύ χρειάζεται. Το Indian Horse είναι ιστορία επιζώντων που πρωτοπορεί στο αδιάσειστο πνεύμα των αυτοχθόνων λαών της Βόρειας Αμερικής ενόψει των επιθετικών πολιτικών αφομοίωσης και του ρατσισμού. Η ιστορία του Saul Indian Horse μπορεί να είναι ένα εργαλείο που βοηθά στην προώθηση περαιτέρω συμπόνιας και κατανόησης…

Spoiler:

Format : AVI
Format/Info : Audio Video Interleave
File size : 1.19 GiB
Duration : 1 h 40 min
Overall bit rate : 1 700 kb/s
Writing application : VirtualDubMod 1.5.10.2 (build 2542/release)
Writing library : VirtualDubMod build 2542/release

Video
ID : 0
Format : MPEG-4 Visual
Format profile : Advanced [email protected]
Format settings : BVOP1
Format settings, BVOP : 1
Format settings, QPel : No
Format settings, GMC : No warppoints
Format settings, Matrix : Default (H.263)
Muxing mode : Packed bitstream
Codec ID : XVID
Codec ID/Hint : XviD
Duration : 1 h 40 min
Bit rate : 1 244 kb/s
Width : 720 pixels
Height : 302 pixels
Display aspect ratio : 2.40:1
Frame rate : 24.000 FPS
Color space : YUV
Chroma subsampling : 4:2:0
Bit depth : 8 bits
Scan type : Progressive
Compression mode : Lossy
Bits/(Pixel*Frame) : 0.238
Stream size : 895 MiB (73%)
Writing library : XviD 64

Audio
ID : 1
Format : AC-3
Format/Info : Audio Coding 3
Codec ID : 2000
Duration : 1 h 40 min
Bit rate mode : Constant
Bit rate : 448 kb/s
Channel(s) : 6 channels
Channel positions : Front: L C R, Side: L R, LFE
Sampling rate : 48.0 kHz
Frame rate : 31.250 FPS (1536 SPF)
Bit depth : 16 bits
Compression mode : Lossy
Stream size : 322 MiB (26%)
Alignment : Split accross interleaves
Interleave, duration : 64 ms (1.54 video frames)
Interleave, preload duratio : 500 ms
Service kind : Complete Main


ΑΝ ΣΑΣ ΑΡΕΣΕΙ Η ΔΟΥΛΕΙΑ ΜΟΥ ΚΑΙ ΘΕΛΕΤΕ ΝΑ ΜΕ ΣΤΗΡΙΞΕΤΕ,
ΚΑΝΤΕ ΕΝΑ ΛΟΓΑΡΙΑΣΜΟ ΓΙΑ EASYBYTEZ & UPLOADED
ΚΑΙ ΚΑΤΕΒΑΣΤΕ ΣΑΝ PREMIUM ΑΠΟ 20 ΔΙΑΦΟΡΕΤΙΚΟΥΣ HOST.

EasyBytez Premium Accounts

Για Uploaded απο Εδώ. http://ul.to/ref/3276399


Links Easybytez & Uploaded

Spoiler:

http://paste2.org/Ce7xNdVg

http://pastebin.com/8vULi3ug

Αγαπητοί φίλοι πολλές φορές ίσως σε κάποια λίνκ σας βγάζει «Server error»
η προβληματικός πάροχος η σφάλμα plugin έχει λήξει.
Αυτό δεν σημαίνει απαραίτητα ότι τα λίνκ είναι νεκρά. Δοκιμάστε το εξής.
Πάρ΄τε τα λίνκ ή το μονό λίνκ και κατεβάστε το με Browser….Δεξί κλίκ στο λίνκ και άνοιγμα σε νέο παράθυρο…
Θα σας ανοίξει μία καρτελίτσα και εσείς θα πατήσετε αποθήκευση, όχι άνοιγμα…
Αυτόματά το λίνκ θα κατέβει και θα αποθηκευτεί στο φάκελο που εσείς έχετε επιλέξει.

Αφήστε μια απάντηση

Chat - Μόνο Εγγεγραμμένοι Χρήστες
You must be signed in to post a comment
Mr.Planet
(Δευτέρα, Νοέ 12. 2018 11:47 ΜΜ)
σε ευχαριστω για τη ενημερωση takisbol ανεβηκαν νεα λινκς.
Mr.Planet
(Δευτέρα, Νοέ 12. 2018 11:46 ΜΜ)
αγαπητε kost36 η σειρα μπορει να εχει ολοκληθωθει αλλα δεν εχει μεταφραστει…
οπως καταλαβαινεις δεν μπορω να κανω κατι…
takisbol
(Δευτέρα, Νοέ 12. 2018 05:17 ΜΜ)
μάλλον υπάρχει πρόβλημα σε μερικά parts στην ταινία THE PREADATOR (2018) HC HDRip XviD AC3-EVO {ενσωμ.υποτ}
kost36
(Κυριακή, Νοέ 11. 2018 05:12 ΜΜ)
αγαπητέ Mr. Planet. η σειρά Taken έχει ολοκληρωθεί από τον ιούνιο. θα ήμουν ευγνώμων αν καταφέρνατε να ανεβάσετε και τα τελευταία 3 επεισόδια ευχαριστώ πολύ…
Mr.Planet
(Πέμπτη, Νοέ 8. 2018 12:19 ΠΜ)
takisbol σε ευχαριστω για την ενημερωση..

1 · 2 · 3 · 4