Kατηγορίες

INCREDIBLES 2 / ΟΙ ΑΠΙΘΑΝΟΙ 2 (2018) BRRip XviD AC3-XVID {ΜΕΤΑΓΛΩΤΙΣΜΕΝΟ}

Είδος Ταινίας: Animation, Action, Adventure
Πρεμιέρα στην Ελλάδα: Πεμ 14 Ιουν 2018
Σκηνοθέτης: Brad Bird
Σενάριο: Brad Bird
Ηθοποιοί: Craig T. Nelson, Holly Hunter, Sarah Vowell
Υπότιτλοι: Μεταγλωτισμένο
Διάρκεια: 118′ Λεπτά
Μέγεθος: 1.80 GB
iMDB: http://www.imdb.com/title/tt3606756/

Στα Ελληνικά με τις φωνές των: Θανάσης Κουρλαμπάς, Σοφία Παναηλίδου, Νικίτα Γεωρβασάκη Ηλιοπούλου, Γιάννης Χασιώτης, Γιώτα Μηλίτση, Νίκος Παπαδόπουλος, Νέστωρ Κοψιδάς, Γιώργος Ματαράγκας, Στεφανία Φιλιάδη, Ηλίας Ζερβός, Ντίνος Σούτης, Λίλα Μουτσοπούλου, Τηλέμαχος Κρεβάικας, Ντίνος Σούτης, Γιάννης Στεφόπουλος, Χρήστος Θάνος

Υπόθεση

Πίσω στη δουλειά.

Στους «Απίθανους 2», η Έλεν/Ελαστίνα ηγείται μιας καμπάνιας για να επιστρέψουν οι Σούπερ Ήρωες στη δράση. Ο Μπομπ/Κύριος Απίθανος, μαζί με την Βάιολετ, τον Ντας και το μωρό Τζακ-Τζακ, προσπαθεί να τα βγάλει πέρα με την καθημερινή, «φυσιολογική» ζωή στο σπίτι, ενώ οι υπερδυνάμεις του Τζακ-Τζακ είναι στο τσακ να αποκαλυφθούν. Η αποστολή ανατρέπεται όταν ένας νέος κακός εμφανίζεται με ένα ευφυές και επικίνδυνο σχέδιο που θέτει τα πάντα σε τρομερό κίνδυνο. Η οικογένεια των Παρ όμως δεν αποφεύγει ποτέ μια πρόκληση, ειδικά με τον Ψύχτρα στο πλευρό της. Για αυτό και είναι όλοι τους τόσο…Απίθανοι.

Spoiler:

Complete name : Incredibles.2.2018.BRRip.XviD.AC3-XVID.avi
Format : AVI
Format/Info : Audio Video Interleave
File size : 1.80 GiB
Duration : 1 h 57 min
Overall bit rate : 2 189 kb/s

Video
ID : 0
Format : MPEG-4 Visual
Format profile : [email protected]
Format settings, BVOP : No
Format settings, QPel : No
Format settings, GMC : No warppoints
Format settings, Matrix : Default (H.263)
Codec ID : XVID
Codec ID/Hint : XviD
Duration : 1 h 57 min
Bit rate : 1 596 kb/s
Width : 720 pixels
Height : 302 pixels
Display aspect ratio : 2.40:1
Frame rate : 23.976 (24000/1001) FPS
Color space : YUV
Chroma subsampling : 4:2:0
Bit depth : 8 bits
Scan type : Progressive
Compression mode : Lossy
Bits/(Pixel*Frame) : 0.306
Stream size : 1.31 GiB (73%)
Writing library : Lavc58.18.100

Audio
ID : 1
Format : AC-3
Format/Info : Audio Coding 3
Commercial name : Dolby Digital
Codec ID : 2000
Duration : 1 h 47 min
Bit rate mode : Constant
Bit rate : 640 kb/s
Channel(s) : 2 channels
Channel layout : L R
Sampling rate : 48.0 kHz
Frame rate : 31.250 FPS (1536 SPF)
Bit depth : 16 bits
Compression mode : Lossy
Stream size : 493 MiB (27%)
Alignment : Aligned on interleaves
Interleave, duration : 70 ms (1.68 video frames)
Interleave, preload duratio : 7616 ms
Title : Incredibles.2.2018.BRRip.XviD.AC3-XVID_track2_und
Service kind : Complete Main


ΑΝ ΣΑΣ ΑΡΕΣΕΙ Η ΔΟΥΛΕΙΑ ΜΟΥ ΚΑΙ ΘΕΛΕΤΕ ΝΑ ΜΕ ΣΤΗΡΙΞΕΤΕ,
ΚΑΝΤΕ ΕΝΑ ΛΟΓΑΡΙΑΣΜΟ ΓΙΑ EASYBYTEZ & UPLOADED
ΚΑΙ ΚΑΤΕΒΑΣΤΕ ΣΑΝ PREMIUM ΑΠΟ 20 ΔΙΑΦΟΡΕΤΙΚΟΥΣ HOST.

EasyBytez Premium Accounts

Για Uploaded απο Εδώ. http://ul.to/ref/3276399


Links Easybytez & Uploaded

Spoiler:

http://paste2.org/3AYhwNIH

http://pastebin.com/xvB0Q8QA

Αγαπητοί φίλοι πολλές φορές ίσως σε κάποια λίνκ σας βγάζει «Server error»
η προβληματικός πάροχος η σφάλμα plugin έχει λήξει.
Αυτό δεν σημαίνει απαραίτητα ότι τα λίνκ είναι νεκρά. Δοκιμάστε το εξής.
Πάρ΄τε τα λίνκ ή το μονό λίνκ και κατεβάστε το με Browser….Δεξί κλίκ στο λίνκ και άνοιγμα σε νέο παράθυρο…
Θα σας ανοίξει μία καρτελίτσα και εσείς θα πατήσετε αποθήκευση, όχι άνοιγμα…
Αυτόματά το λίνκ θα κατέβει και θα αποθηκευτεί στο φάκελο που εσείς έχετε επιλέξει.

Αφήστε μια απάντηση

Chat - Μόνο Εγγεγραμμένοι Χρήστες
You must be signed in to post a comment
Mr.Planet
(Δευτέρα, Νοέ 12. 2018 11:47 ΜΜ)
σε ευχαριστω για τη ενημερωση takisbol ανεβηκαν νεα λινκς.
Mr.Planet
(Δευτέρα, Νοέ 12. 2018 11:46 ΜΜ)
αγαπητε kost36 η σειρα μπορει να εχει ολοκληθωθει αλλα δεν εχει μεταφραστει…
οπως καταλαβαινεις δεν μπορω να κανω κατι…
takisbol
(Δευτέρα, Νοέ 12. 2018 05:17 ΜΜ)
μάλλον υπάρχει πρόβλημα σε μερικά parts στην ταινία THE PREADATOR (2018) HC HDRip XviD AC3-EVO {ενσωμ.υποτ}
kost36
(Κυριακή, Νοέ 11. 2018 05:12 ΜΜ)
αγαπητέ Mr. Planet. η σειρά Taken έχει ολοκληρωθεί από τον ιούνιο. θα ήμουν ευγνώμων αν καταφέρνατε να ανεβάσετε και τα τελευταία 3 επεισόδια ευχαριστώ πολύ…
Mr.Planet
(Πέμπτη, Νοέ 8. 2018 12:19 ΠΜ)
takisbol σε ευχαριστω για την ενημερωση..

1 · 2 · 3 · 4