Kατηγορίες

HOTEL ARTEMIS (2018) BRRip XviD AC3-iFT {ΕΝΣΩΜ.ΥΠΟΤ}

ΣΚΗΝΟΘΕΣΙΑ : Drew Pearce
ΣΕΝΑΡΙΟ : Drew Pearce
ΗΘΟΠΟΙΟΙ : Jodie Foster, Sofia Boutella, Dave Bautista
ΕΙΔΟΣ : Action , Crime , Drama
ΠΡΕΜΙΕΡΑ : 14 June 2018 (Greece)
ΜΕΤΑΦΡΑΣΗ : Άγνωστος
iMDB: http://www.imdb.com/title/tt5834262/

Υπόθεση

Λος Άντζελες, 2028. Οι δρόμοι είναι αδιαπέραστοι καθώς εξελίσσεται η πιο βίαιη εξέγερση στην ιστορία της πόλης. Μέσα στο απόλυτο χάος, μία συμμορία ληστών τραυματίζεται από πυρά αστυνομικών. Η μόνη ελπίδα είναι το Hotel Artemis, ένα νοσοκομείο τελευταίας τεχνολογίας αποκλειστικά για εγκληματίες με αυστηρούς κανόνες και ιδιοκτήτη έναν αρχιμαφιόζο. Η Νοσοκόμα διοικεί το μέρος για 22 χρόνια και μπορεί να γιατρέψει ακόμα και τα πιο δύσκολα περιστατικά. Την ίδια νύχτα έχουν κάνει τσεκ ιν μία λάγνα Γαλλίδα δολοφόνος, ένας ναρκισσιστής έμπορος όπλων, ενώ ο ιδιοκτήτης και ο εκρηκτικός γιος του κατευθύνονται προς τα εκεί. Επίσης, ένας τραυματισμένος αστυνομικός που ικετεύει τη Νοσοκόμα να τον δεχτεί, πράγμα που παραβαίνει τους κανόνες που τηρούνται ευλαβικά 22 ολόκληρα χρόνια…

Spoiler:

Format : AVI
Format/Info : Audio Video Interleave
File size : 1.58 GiB
Duration : 1 h 33 min
Overall bit rate : 2 409 kb/s
Writing application : VirtualDubMod 1.5.10.2 (build 2542/release)
Writing library : VirtualDubMod build 2542/release

Video
ID : 0
Format : MPEG-4 Visual
Format profile : Advanced [email protected]
Format settings : BVOP1
Format settings, BVOP : 1
Format settings, QPel : No
Format settings, GMC : No warppoints
Format settings, Matrix : Default (H.263)
Muxing mode : Packed bitstream
Codec ID : XVID
Codec ID/Hint : XviD
Duration : 1 h 33 min
Bit rate : 1 953 kb/s
Width : 720 pixels
Height : 304 pixels
Display aspect ratio : 2.35:1
Frame rate : 23.976 (24000/1001) FPS
Color space : YUV
Chroma subsampling : 4:2:0
Bit depth : 8 bits
Scan type : Progressive
Compression mode : Lossy
Bits/(Pixel*Frame) : 0.372
Stream size : 1.28 GiB (81%)
Writing library : XviD 64

Audio
ID : 1
Format : AC-3
Format/Info : Audio Coding 3
Codec ID : 2000
Duration : 1 h 33 min
Bit rate mode : Constant
Bit rate : 448 kb/s
Channel(s) : 6 channels
Channel positions : Front: L C R, Side: L R, LFE
Sampling rate : 48.0 kHz
Frame rate : 31.250 FPS (1536 SPF)
Bit depth : 16 bits
Compression mode : Lossy
Stream size : 300 MiB (19%)
Alignment : Split accross interleaves
Interleave, duration : 64 ms (1.53 video frames)
Interleave, preload duratio : 500 ms
Service kind : Complete Main


ΑΝ ΣΑΣ ΑΡΕΣΕΙ Η ΔΟΥΛΕΙΑ ΜΟΥ ΚΑΙ ΘΕΛΕΤΕ ΝΑ ΜΕ ΣΤΗΡΙΞΕΤΕ,
ΚΑΝΤΕ ΕΝΑ ΛΟΓΑΡΙΑΣΜΟ ΓΙΑ EASYBYTEZ & UPLOADED
ΚΑΙ ΚΑΤΕΒΑΣΤΕ ΣΑΝ PREMIUM ΑΠΟ 20 ΔΙΑΦΟΡΕΤΙΚΟΥΣ HOST.

EasyBytez Premium Accounts

Για Uploaded απο Εδώ. http://ul.to/ref/3276399


Links Easybytez & Uploaded

Spoiler:

http://paste2.org/3tsaDUDx

http://pastebin.com/H0pD6kjN

Αγαπητοί φίλοι πολλές φορές ίσως σε κάποια λίνκ σας βγάζει «Server error»
η προβληματικός πάροχος η σφάλμα plugin έχει λήξει.
Αυτό δεν σημαίνει απαραίτητα ότι τα λίνκ είναι νεκρά. Δοκιμάστε το εξής.
Πάρ΄τε τα λίνκ ή το μονό λίνκ και κατεβάστε το με Browser….Δεξί κλίκ στο λίνκ και άνοιγμα σε νέο παράθυρο…
Θα σας ανοίξει μία καρτελίτσα και εσείς θα πατήσετε αποθήκευση, όχι άνοιγμα…
Αυτόματά το λίνκ θα κατέβει και θα αποθηκευτεί στο φάκελο που εσείς έχετε επιλέξει.

Αφήστε μια απάντηση

Chat - Μόνο Εγγεγραμμένοι Χρήστες
You must be signed in to post a comment
Mr.Planet
(Δευτέρα, Νοέ 12. 2018 11:47 ΜΜ)
σε ευχαριστω για τη ενημερωση takisbol ανεβηκαν νεα λινκς.
Mr.Planet
(Δευτέρα, Νοέ 12. 2018 11:46 ΜΜ)
αγαπητε kost36 η σειρα μπορει να εχει ολοκληθωθει αλλα δεν εχει μεταφραστει…
οπως καταλαβαινεις δεν μπορω να κανω κατι…
takisbol
(Δευτέρα, Νοέ 12. 2018 05:17 ΜΜ)
μάλλον υπάρχει πρόβλημα σε μερικά parts στην ταινία THE PREADATOR (2018) HC HDRip XviD AC3-EVO {ενσωμ.υποτ}
kost36
(Κυριακή, Νοέ 11. 2018 05:12 ΜΜ)
αγαπητέ Mr. Planet. η σειρά Taken έχει ολοκληρωθεί από τον ιούνιο. θα ήμουν ευγνώμων αν καταφέρνατε να ανεβάσετε και τα τελευταία 3 επεισόδια ευχαριστώ πολύ…
Mr.Planet
(Πέμπτη, Νοέ 8. 2018 12:19 ΠΜ)
takisbol σε ευχαριστω για την ενημερωση..

1 · 2 · 3 · 4